منتدى مشاهدة الافلام

MyEgy| افلام عربي | افلام اجنبي | اغاني | كليبات | برامج | العاب | ماى ايجى | منتدى ماى ايجى | مشاهدة افلام مباشرة | تلفزيون | دليل المواقع | دردشة شات.
 
الرئيسيةس .و .جبحـثالمجموعاتالتسجيلدخول

شاطر | 
 

  Marley & Me-The Puppy Years 2011 DVDRip x264 AAC-HoncHo (Kingdom Release)

استعرض الموضوع السابق استعرض الموضوع التالي اذهب الى الأسفل 
كاتب الموضوعرسالة
kEnZyToP
.: المدير العام :.
.: المدير العام :.
avatar

ذكر عدد المساهمات : 318
نقاط : 930
تاريخ التسجيل : 26/08/2010
العمر : 28

مُساهمةموضوع: Marley & Me-The Puppy Years 2011 DVDRip x264 AAC-HoncHo (Kingdom Release)    الإثنين أغسطس 15, 2011 8:06 pm

Take Me Home Tonight (2011) DVDRiP XviD iMAGiNE




الكود:
Video
ID                              : 0
Format                          : MPEG-4 Visual
Format profile                  : Advanced [/color][email=Simple@L5][color=white]Simple@L5[/color][/email]
[color=white]Format settings, BVOP            : Yes
Format settings, QPel            : No
Format settings, GMC            : No warppoints
Format settings, Matrix          : Custom
Codec ID                        : XVID
Codec ID/Hint                    : XviD
Duration                        : 1h 24mn
Bit rate                        : 1 110 Kbps
Width                            : 640 pixels
Height                          : 304 pixels
Display aspect ratio            : 2.2:1
Frame rate                      : 23.976 fps
Color space                      : YUV
Chroma subsampling              : 4:2:0
Bit depth                        : 8 bits
Scan type                        : Progressive
Bits/(Pixel*Frame)              : 0.238
Stream size                      : 705.4 MiB
Writing library                  : XviD 1.2.1 (UTC 2008-12-04)
 
Audio
ID                              : 1
Format                          : MPEG Audio
Format version                  : Version 1
Format profile                  : Layer 3
Codec ID                        : 55
Codec ID/Hint                    : MP3
Duration                        : 1h 24mn
Bit rate mode                    : Constant
Bit rate                        : 128 Kbps
Channel(s)                      : 2 channels
Sampling rate                    : 44.1 KHz
Stream size                      : 77.7 MiB (10%)
Alignment                        : Split accross interleaves
Interleave, duration            : 42 ms (1.00 video frame)
Interleave, preload duration    : 500 ms







FILESONIC.COM | SINGLE LINK | BEST AVAILABLE QUALITY!

[URL]http://kenzytop.com/link
/54[/URL]
الرجوع الى أعلى الصفحة اذهب الى الأسفل
معاينة صفحة البيانات الشخصي للعضو
 
Marley & Me-The Puppy Years 2011 DVDRip x264 AAC-HoncHo (Kingdom Release)
استعرض الموضوع السابق استعرض الموضوع التالي الرجوع الى أعلى الصفحة 
صفحة 1 من اصل 1
 مواضيع مماثلة
-
» عاصفه شمسيه ستهاجم الارض 2011 خبر من وكلاه ناسا
» مكياج 2011 نايس
» حصريا على حبه دى جى وبس لعبه بيت الرعب 2011
» انفراد تام اللعبه المعشوقه Pro Evolution Soccer 2011 تعليق فرنسي بحجم 6 جيجا على رابط واحد فقط يدعم الاستكمال
» محمود 2011 صور جديدة وصاحي مثل الحصان

صلاحيات هذا المنتدى:لاتستطيع الرد على المواضيع في هذا المنتدى
منتدى مشاهدة الافلام :: قسم الافلام :: افلام اجنبية-
انتقل الى: